  0
SECTION
  2
HEADER
  9
$ACADVER
  1
AC1012
  9
$DWGCODEPAGE
  3
dos850
  9
$INSBASE
 10
0.0
 20
0.0
 30
0.0
  9
$EXTMIN
 10
-6.9823784526
 20
-5.3937114189
 30
0.0
  9
$EXTMAX
 10
9.7182718828
 20
4.4845455881
 30
0.0
  9
$LIMMIN
 10
0.0
 20
0.0
  9
$LIMMAX
 10
0.0
 20
0.0
  9
$ORTHOMODE
 70
         0
  9
$REGENMODE
 70
         1
  9
$FILLMODE
 70
         1
  9
$QTEXTMODE
 70
         0
  9
$MIRRTEXT
 70
         1
  9
$DRAGMODE
 70
         2
  9
$LTSCALE
 40
1.0
  9
$OSMODE
 70
         0
  9
$ATTMODE
 70
         1
  9
$TEXTSIZE
 40
0.125
  9
$TRACEWID
 40
0.05
  9
$TEXTSTYLE
  7
STANDARD
  9
$CLAYER
  8
0
  9
$CELTYPE
  6
CONTINUOUS
  9
$CECOLOR
 62
         6
  9
$CELTSCALE
 40
1.0
  9
$DELOBJ
 70
         1
  9
$DISPSILH
 70
         0
  9
$DIMSCALE
 40
1.0
  9
$DIMASZ
 40
0.18
  9
$DIMEXO
 40
0.0625
  9
$DIMDLI
 40
0.38
  9
$DIMRND
 40
0.0
  9
$DIMDLE
 40
0.0
  9
$DIMEXE
 40
0.25
  9
$DIMTP
 40
0.01
  9
$DIMTM
 40
-0.01
  9
$DIMTXT
 40
0.5
  9
$DIMCEN
 40
0.09
  9
$DIMTSZ
 40
0.0
  9
$DIMTOL
 70
         0
  9
$DIMLIM
 70
         0
  9
$DIMTIH
 70
         1
  9
$DIMTOH
 70
         1
  9
$DIMSE1
 70
         0
  9
$DIMSE2
 70
         0
  9
$DIMTAD
 70
         0
  9
$DIMZIN
 70
         0
  9
$DIMBLK
  1

  9
$DIMASO
 70
         1
  9
$DIMSHO
 70
         1
  9
$DIMPOST
  1

  9
$DIMAPOST
  1

  9
$DIMALT
 70
         0
  9
$DIMALTD
 70
         2
  9
$DIMALTF
 40
25.4
  9
$DIMLFAC
 40
1.0
  9
$DIMTOFL
 70
         0
  9
$DIMTVP
 40
0.0
  9
$DIMTIX
 70
         0
  9
$DIMSOXD
 70
         0
  9
$DIMSAH
 70
         0
  9
$DIMBLK1
  1

  9
$DIMBLK2
  1

  9
$DIMSTYLE
  2
STANDARD
  9
$DIMCLRD
 70
         0
  9
$DIMCLRE
 70
         0
  9
$DIMCLRT
 70
         6
  9
$DIMTFAC
 40
1.0
  9
$DIMGAP
 40
0.09
  9
$DIMJUST
 70
         0
  9
$DIMSD1
 70
         0
  9
$DIMSD2
 70
         0
  9
$DIMTOLJ
 70
         1
  9
$DIMTZIN
 70
         0
  9
$DIMALTZ
 70
         0
  9
$DIMALTTZ
 70
         0
  9
$DIMFIT
 70
         3
  9
$DIMUPT
 70
         0
  9
$DIMUNIT
 70
         2
  9
$DIMDEC
 70
         4
  9
$DIMTDEC
 70
         4
  9
$DIMALTU
 70
         2
  9
$DIMALTTD
 70
         2
  9
$DIMTXSTY
  7
STANDARD
  9
$DIMAUNIT
 70
         0
  9
$LUNITS
 70
         2
  9
$LUPREC
 70
        10
  9
$SKETCHINC
 40
0.1
  9
$FILLETRAD
 40
0.0
  9
$AUNITS
 70
         0
  9
$AUPREC
 70
         0
  9
$MENU
  1
acad
  9
$ELEVATION
 40
0.0
  9
$PELEVATION
 40
0.0
  9
$THICKNESS
 40
0.0
  9
$LIMCHECK
 70
         0
  9
$BLIPMODE
 70
         1
  9
$CHAMFERA
 40
0.0
  9
$CHAMFERB
 40
0.0
  9
$CHAMFERC
 40
0.0
  9
$CHAMFERD
 40
0.0
  9
$SKPOLY
 70
         0
  9
$TDCREATE
 40
0.000000000
  9
$TDUPDATE
 40
0.000000000
  9
$TDINDWG
 40
0.0000000000
  9
$TDUSRTIMER
 40
0.0000000000
  9
$USRTIMER
 70
         1
  9
$ANGBASE
 50
0.0
  9
$ANGDIR
 70
         0
  9
$PDMODE
 70
         2
  9
$PDSIZE
 40
0.0
  9
$PLINEWID
 40
0.0
  9
$COORDS
 70
         1
  9
$SPLFRAME
 70
         0
  9
$SPLINETYPE
 70
         6
  9
$SPLINESEGS
 70
         8
  9
$ATTDIA
 70
         0
  9
$ATTREQ
 70
         1
  9
$HANDLING
 70
         1
  9
$HANDSEED
  5
A8
  9
$SURFTAB1
 70
         6
  9
$SURFTAB2
 70
         6
  9
$SURFTYPE
 70
         6
  9
$SURFU
 70
         6
  9
$SURFV
 70
         6
  9
$UCSNAME
  2

  9
$UCSORG
 10
0.0
 20
0.0
 30
0.0
  9
$UCSXDIR
 10
1.0
 20
0.0
 30
0.0
  9
$UCSYDIR
 10
0.0
 20
1.0
 30
0.0
  9
$PUCSNAME
  2

  9
$PUCSORG
 10
0.0
 20
0.0
 30
0.0
  9
$PUCSXDIR
 10
1.0
 20
0.0
 30
0.0
  9
$PUCSYDIR
 10
0.0
 20
1.0
 30
0.0
  9
$USERI1
 70
         0
  9
$USERI2
 70
         0
  9
$USERI3
 70
         0
  9
$USERI4
 70
         0
  9
$USERI5
 70
         0
  9
$USERR1
 40
0.0
  9
$USERR2
 40
0.0
  9
$USERR3
 40
0.0
  9
$USERR4
 40
0.0
  9
$USERR5
 40
0.0
  9
$WORLDVIEW
 70
         1
  9
$SHADEDGE
 70
         3
  9
$SHADEDIF
 70
        70
  9
$TILEMODE
 70
         1
  9
$MAXACTVP
 70
        16
  9
$PINSBASE
 10
0.0
 20
0.0
 30
0.0
  9
$PLIMCHECK
 70
         0
  9
$PEXTMIN
 10
1.0000000000E+20
 20
1.0000000000E+20
 30
1.0000000000E+20
  9
$PEXTMAX
 10
-1.0000000000E+20
 20
-1.0000000000E+20
 30
-1.0000000000E+20
  9
$PLIMMIN
 10
0.0
 20
0.0
  9
$PLIMMAX
 10
12.0
 20
9.0
  9
$UNITMODE
 70
         0
  9
$VISRETAIN
 70
         0
  9
$PLINEGEN
 70
         1
  9
$PSLTSCALE
 70
         0
  9
$TREEDEPTH
 70
      3020
  9
$PICKSTYLE
 70
         1
  9
$CMLSTYLE
  2
STANDARD
  9
$CMLJUST
 70
         0
  9
$CMLSCALE
 40
1.0
  9
$SAVEIMAGES
 70
         0
  0
ENDSEC
  0
SECTION
  2
CLASSES
  0
CLASS
  1
LWPOLYLINE
  2
AcDbPolyline
  3
"AutoCAD"
 90
        0
280
         0
281
         1
  0
CLASS
  1
IMAGE
  2
AcDbRasterImage
  3
ISM
 90
      127
280
         0
281
         1
  0
CLASS
  1
OLE2FRAME
  2
AcDbOle2Frame
  3
""
 90
        0
280
         0
281
         1
  0
CLASS
  1
HATCH
  2
AcDbHatch
  3
"ACAD_SEDONA"
 90
        0
280
         0
281
         1
  0
CLASS
  1
DICTIONARYVAR
  2
AcDbDictionaryVar
  3
"AutoCAD"
 90
        0
280
         0
281
         0
  0
CLASS
  1
RASTERVARIABLES
  2
AcDbRasterVariables
  3
ISM
 90
        0
280
         0
281
         0
  0
CLASS
  1
IMAGEDEF
  2
AcDbRasterImageDef
  3
ISM
 90
        0
280
         0
281
         0
  0
CLASS
  1
IMAGEDEF_REACTOR
  2
AcDbRasterImageDefReactor
  3
ISM
 90
        1
280
         0
281
         0
  0
CLASS
  1
IDBUFFER
  2
AcDbIdBuffer
  3
"Acad"
 90
        0
280
         0
281
         0
  0
CLASS
  1
SPATIAL_FILTER
  2
AcDbSpatialFilter
  3
"Acad"
 90
        0
280
         0
281
         0
  0
CLASS
  1
XRECORD
  2
AcDbXrecord
  3
"<Built In>"
 90
        0
280
         0
281
         0
  0
CLASS
  1
SORTENTSTABLE
  2
AcDbSortentsTable
  3
"AutoCAD"
 90
        0
280
         0
281
         0
  0
CLASS
  1
LAYER_INDEX
  2
AcDbLayerIndex
  3
"Acad"
 90
        0
280
         0
281
         0
  0
CLASS
  1
SPATIAL_INDEX
  2
AcDbSpatialIndex
  3
"Acad"
 90
        0
280
         0
281
         0
  0
CLASS
  1
OBJECT_PTR
  2
CAseDLPNTableRecord
  3
"ASE-LPNTableRecord"
 90
        1
280
         0
281
         0
  0
ENDSEC
  0
SECTION
  2
TABLES
  0
TABLE
  2
VPORT
  5
7
100
AcDbSymbolTable
 70
         1
  0
VPORT
  5
15
100
AcDbSymbolTableRecord
100
AcDbViewportTableRecord
  2
*ACTIVE
 70
         0
 10
0.0
 20
0.0
 11
1.0
 21
1.0
 12
1.3679467151
 22
-0.4545829154
 13
0.0
 23
0.0
 14
1.0
 24
1.0
 15
0.0
 25
0.0
 16
0.0
 26
0.0
 36
1.0
 17
0.0
 27
0.0
 37
0.0
 40
9.8782570069
 41
1.690647482
 42
50.0
 43
0.0
 44
0.0
 50
0.0
 51
0.0
 71
         0
 72
       100
 73
         1
 74
         1
 75
         0
 76
         0
 77
         0
 78
         0
  0
ENDTAB
  0
TABLE
  2
LTYPE
  5
4
100
AcDbSymbolTable
 70
         6
  0
LTYPE
  5
11
100
AcDbSymbolTableRecord
100
AcDbLinetypeTableRecord
  2
BYBLOCK
 70
         0
  3

 72
        65
 73
         0
 40
0.0
  0
LTYPE
  5
12
100
AcDbSymbolTableRecord
100
AcDbLinetypeTableRecord
  2
BYLAYER
 70
         0
  3

 72
        65
 73
         0
 40
0.0
  0
LTYPE
  5
13
100
AcDbSymbolTableRecord
100
AcDbLinetypeTableRecord
  2
CONTINUOUS
 70
         0
  3
Solid line
 72
        65
 73
         0
 40
0.0
  0
LTYPE
  5
1D
100
AcDbSymbolTableRecord
100
AcDbLinetypeTableRecord
  2
DASHED
 70
         0
  3
_ _ _ _ _ _ _ _ _ _ _ _ _ _ _ _
 72
        65
 73
         2
 40
0.2
 49
0.1
 74
         0
 49
-0.1
 74
         0
  0
LTYPE
  5
1E
100
AcDbSymbolTableRecord
100
AcDbLinetypeTableRecord
  2
CENTER
 70
         0
  3
___ _ ___ _ ___ _ ___ _ ___ _ ___ _ ___ _ ___ _
 72
        65
 73
         4
 40
0.95
 49
0.625
 74
         0
 49
-0.125
 74
         0
 49
0.075
 74
         0
 49
-0.125
 74
         0
  0
LTYPE
  5
1F
100
AcDbSymbolTableRecord
100
AcDbLinetypeTableRecord
  2
PHANTOM
 70
         0
  3
______  __  __  ______  __  __  ______  __  __  
 72
        65
 73
         6
 40
1.025
 49
0.625
 74
         0
 49
-0.125
 74
         0
 49
0.075
 74
         0
 49
-0.125
 74
         0
 49
0.075
 74
         0
 49
-0.125
 74
         0
  0
ENDTAB
  0
TABLE
  2
LAYER
  5
2
100
AcDbSymbolTable
 70
         3
  0
LAYER
  5
14
100
AcDbSymbolTableRecord
100
AcDbLayerTableRecord
  2
0
 70
         0
 62
         7
  6
CONTINUOUS
  0
LAYER
  5
21
100
AcDbSymbolTableRecord
100
AcDbLayerTableRecord
  2
CK_LEVEL_1
 70
         0
 62
         7
  6
CONTINUOUS
  0
LAYER
  5
26
100
AcDbSymbolTableRecord
100
AcDbLayerTableRecord
  2
DEFPOINTS
 70
         0
 62
        -7
  6
CONTINUOUS
  0
ENDTAB
  0
TABLE
  2
STYLE
  5
3
100
AcDbSymbolTable
 70
         1
  0
STYLE
  5
17
100
AcDbSymbolTableRecord
100
AcDbTextStyleTableRecord
  2
STANDARD
 70
         0
 40
0.0
 41
1.0
 50
0.0
 71
         0
 42
0.0
  3
txt
  4

  0
ENDTAB
  0
TABLE
  2
VIEW
  5
5
100
AcDbSymbolTable
 70
         0
  0
ENDTAB
  0
TABLE
  2
UCS
  5
6
100
AcDbSymbolTable
 70
         1
  0
UCS
  5
20
100
AcDbSymbolTableRecord
100
AcDbUCSTableRecord
  2
CK_VIEW_1
 70
         0
 10
0.0
 20
0.0
 30
1.0
 11
1.0
 21
0.0
 31
0.0
 12
0.0
 22
1.0
 32
0.0
  0
ENDTAB
  0
TABLE
  2
APPID
  5
8
100
AcDbSymbolTable
 70
         1
  0
APPID
  5
16
100
AcDbSymbolTableRecord
100
AcDbRegAppTableRecord
  2
ACAD
 70
         0
  0
ENDTAB
  0
TABLE
  2
DIMSTYLE
  5
9
100
AcDbSymbolTable
 70
         3
  0
DIMSTYLE
105
18
100
AcDbSymbolTableRecord
100
AcDbDimStyleTableRecord
  2
STANDARD
 70
         0
  3

  4

  5

  6

  7

 40
1.0
 41
0.18
 42
0.0625
 43
0.38
 44
0.18
 45
0.0
 46
0.0
 47
0.0
 48
0.0
140
0.18
141
0.09
142
0.0
143
25.4
144
1.0
145
0.0
146
1.0
147
0.09
 71
         0
 72
         0
 73
         1
 74
         1
 75
         0
 76
         0
 77
         0
 78
         0
170
         0
171
         2
172
         0
173
         0
174
         0
175
         0
176
         0
177
         0
178
         0
270
         2
271
         4
272
         4
273
         2
274
         2
340
17
275
         0
280
         0
281
         0
282
         0
283
         1
284
         0
285
         0
286
         0
287
         0
288
         0
  0
DIMSTYLE
105
22
100
AcDbSymbolTableRecord
100
AcDbDimStyleTableRecord
  2
DIMSTYLE1
 70
         0
  3

  4

  5

  6

  7

 40
1.0
 41
0.5
 42
0.0625
 43
0.38
 44
0.5
 45
0.0
 46
0.0
 47
0.0
 48
0.0
140
0.5
141
0.09
142
0.0
143
25.4
144
1.0
145
0.0
146
1.0
147
0.09
 71
         0
 72
         0
 73
         1
 74
         1
 75
         0
 76
         0
 77
         0
 78
         0
170
         0
171
         2
172
         0
173
         0
174
         0
175
         0
176
         0
177
         0
178
         0
270
         2
271
         4
272
         4
273
         2
274
         2
340
17
275
         0
280
         0
281
         0
282
         0
283
         1
284
         0
285
         0
286
         0
287
         0
288
         0
  0
DIMSTYLE
105
32
100
AcDbSymbolTableRecord
100
AcDbDimStyleTableRecord
  2
DIMSTYLE2
 70
         0
  3

  4

  5

  6

  7

 40
1.0
 41
0.5
 42
0.0625
 43
0.38
 44
0.5
 45
0.0
 46
0.0
 47
0.0
 48
0.0
140
0.5
141
0.09
142
0.0
143
25.4
144
1.0
145
0.0
146
1.0
147
0.09
 71
         0
 72
         0
 73
         1
 74
         1
 75
         0
 76
         0
 77
         0
 78
         0
170
         0
171
         2
172
         0
173
         0
174
         0
175
         0
176
         0
177
         0
178
         0
270
         2
271
         4
272
         4
273
         2
274
         2
340
17
275
         0
280
         0
281
         0
282
         0
283
         1
284
         0
285
         0
286
         0
287
         0
288
         0
  0
ENDTAB
  0
TABLE
  2
BLOCK_RECORD
  5
1
100
AcDbSymbolTable
 70
         2
  0
BLOCK_RECORD
  5
A
100
AcDbSymbolTableRecord
100
AcDbBlockTableRecord
  2
*MODEL_SPACE
  0
BLOCK_RECORD
  5
B
100
AcDbSymbolTableRecord
100
AcDbBlockTableRecord
  2
*PAPER_SPACE
  0
BLOCK_RECORD
  5
23
102
{ACAD_XDICTIONARY
360
45
102
}
100
AcDbSymbolTableRecord
100
AcDbBlockTableRecord
  2
*D0
  0
BLOCK_RECORD
  5
33
102
{ACAD_XDICTIONARY
360
20
102
}
100
AcDbSymbolTableRecord
100
AcDbBlockTableRecord
  2
*D1
  0
ENDTAB
  0
ENDSEC
  0
SECTION
  2
BLOCKS
  0
BLOCK
  5
D
100
AcDbEntity
  8
0
100
AcDbBlockBegin
  2
*MODEL_SPACE
 70
         0
 10
0.0
 20
0.0
 30
0.0
  3
*MODEL_SPACE
  1

  0
ENDBLK
  5
E
100
AcDbEntity
  8
0
100
AcDbBlockEnd
  0
BLOCK
  5
F
100
AcDbEntity
 67
         1
  8
0
100
AcDbBlockBegin
  2
*PAPER_SPACE
 70
         0
 10
0.0
 20
0.0
 30
0.0
  3
*PAPER_SPACE
  1

  0
ENDBLK
  5
10
100
AcDbEntity
 67
         1
  8
0
100
AcDbBlockEnd
  0
BLOCK
  5
24
100
AcDbEntity
  8
0
100
AcDbBlockBegin
  2
*D0
 70
        65
 10
0.0
 20
0.0
 30
0.0
  3
*D0
  1

  0
POINT
  5
27
100
AcDbEntity
  8
DEFPOINTS
  6
CONTINUOUS
 62
         0
100
AcDbPoint
 10
4.0355339059
 20
-4.6946997367
 30
0.0
  0
POINT
  5
28
100
AcDbEntity
  8
DEFPOINTS
  6
CONTINUOUS
 62
         0
100
AcDbPoint
 10
4.0355339059
 20
-3.5355339059
 30
0.0
  0
POINT
  5
29
100
AcDbEntity
  8
DEFPOINTS
  6
CONTINUOUS
 62
         0
100
AcDbPoint
 10
-4.0355339059
 20
-3.5355339059
 30
0.0
  0
LINE
  5
2A
100
AcDbEntity
  8
CK_LEVEL_1
  6
CONTINUOUS
 62
         6
100
AcDbLine
 10
4.0355339059
 20
-3.7855339059
 30
0.0
 11
4.0355339059
 21
-4.8196997367
 31
0.0
  0
LINE
  5
2B
100
AcDbEntity
  8
CK_LEVEL_1
  6
CONTINUOUS
 62
         6
100
AcDbLine
 10
-4.0355339059
 20
-3.7855339059
 30
0.0
 11
-4.0355339059
 21
-4.8196997367
 31
0.0
  0
LINE
  5
2C
100
AcDbEntity
  8
CK_LEVEL_1
  6
CONTINUOUS
 62
         6
100
AcDbLine
 10
4.0355339059
 20
-4.6946997367
 30
0.0
 11
0.8632925194
 21
-4.6946997367
 31
0.0
  0
3DFACE
  5
2D
100
AcDbEntity
  8
CK_LEVEL_1
  6
CONTINUOUS
 62
         6
100
AcDbFace
 10
4.0355339059
 20
-4.6946997367
 30
0.0
 11
3.5355339059
 21
-4.7696997367
 31
0.0
 12
3.5355339059
 22
-4.6196997367
 32
0.0
 13
3.5355339059
 23
-4.6196997367
 33
0.0
 70
         4
  0
LINE
  5
2E
100
AcDbEntity
  8
CK_LEVEL_1
  6
CONTINUOUS
 62
         6
100
AcDbLine
 10
-4.0355339059
 20
-4.6946997367
 30
0.0
 11
-0.8867074806
 21
-4.6946997367
 31
0.0
  0
3DFACE
  5
2F
100
AcDbEntity
  8
CK_LEVEL_1
  6
CONTINUOUS
 62
         6
100
AcDbFace
 10
-4.0355339059
 20
-4.6946997367
 30
0.0
 11
-3.5355339059
 21
-4.6196997367
 31
0.0
 12
-3.5355339059
 22
-4.7696997367
 32
0.0
 13
-3.5355339059
 23
-4.7696997367
 33
0.0
 70
         4
  0
TEXT
  5
30
100
AcDbEntity
  8
CK_LEVEL_1
  6
CONTINUOUS
 62
         6
100
AcDbText
 10
-0.6367074806
 20
-4.9446997367
 30
0.0
 40
0.5
  1
8.071
 41
0.5
100
AcDbText
  0
ENDBLK
  5
31
100
AcDbEntity
  8
0
  6
CONTINUOUS
100
AcDbBlockEnd
  0
BLOCK
  5
34
100
AcDbEntity
  8
0
100
AcDbBlockBegin
  2
*D1
 70
        65
 10
0.0
 20
0.0
 30
0.0
  3
*D1
  1

  0
POINT
  5
36
100
AcDbEntity
  8
DEFPOINTS
  6
CONTINUOUS
 62
         0
100
AcDbPoint
 10
6.1464273361
 20
-4.0355339059
 30
0.0
  0
POINT
  5
37
100
AcDbEntity
  8
DEFPOINTS
  6
CONTINUOUS
 62
         0
100
AcDbPoint
 10
3.5355339059
 20
-4.0355339059
 30
0.0
  0
POINT
  5
38
100
AcDbEntity
  8
DEFPOINTS
  6
CONTINUOUS
 62
         0
100
AcDbPoint
 10
3.5355339059
 20
4.0355339059
 30
0.0
  0
LINE
  5
39
100
AcDbEntity
  8
CK_LEVEL_1
  6
CONTINUOUS
 62
         6
100
AcDbLine
 10
3.7855339059
 20
-4.0355339059
 30
0.0
 11
6.2714273361
 21
-4.0355339059
 31
0.0
  0
LINE
  5
3A
100
AcDbEntity
  8
CK_LEVEL_1
  6
CONTINUOUS
 62
         6
100
AcDbLine
 10
3.7855339059
 20
4.0355339059
 30
0.0
 11
6.2714273361
 21
4.0355339059
 31
0.0
  0
LINE
  5
3B
100
AcDbEntity
  8
CK_LEVEL_1
  6
CONTINUOUS
 62
         6
100
AcDbLine
 10
6.1464273361
 20
-4.0355339059
 30
0.0
 11
6.1464273361
 21
-0.5585374032
 31
0.0
  0
3DFACE
  5
3C
100
AcDbEntity
  8
CK_LEVEL_1
  6
CONTINUOUS
 62
         6
100
AcDbFace
 10
6.1464273361
 20
-4.0355339059
 30
0.0
 11
6.0714273361
 21
-3.5355339059
 31
0.0
 12
6.2214273361
 22
-3.5355339059
 32
0.0
 13
6.2214273361
 23
-3.5355339059
 33
0.0
 70
         4
  0
LINE
  5
3D
100
AcDbEntity
  8
CK_LEVEL_1
  6
CONTINUOUS
 62
         6
100
AcDbLine
 10
6.1464273361
 20
4.0355339059
 30
0.0
 11
6.1464273361
 21
0.4414625968
 31
0.0
  0
3DFACE
  5
3E
100
AcDbEntity
  8
CK_LEVEL_1
  6
CONTINUOUS
 62
         6
100
AcDbFace
 10
6.1464273361
 20
4.0355339059
 30
0.0
 11
6.2214273361
 21
3.5355339059
 31
0.0
 12
6.0714273361
 22
3.5355339059
 32
0.0
 13
6.0714273361
 23
3.5355339059
 33
0.0
 70
         4
  0
TEXT
  5
3F
100
AcDbEntity
  8
CK_LEVEL_1
  6
CONTINUOUS
 62
         6
100
AcDbText
 10
5.5214273361
 20
-0.3085374032
 30
0.0
 40
0.5
  1
8.071
 41
0.5
100
AcDbText
  0
ENDBLK
  5
40
100
AcDbEntity
  8
0
  6
CONTINUOUS
100
AcDbBlockEnd
  0
ENDSEC
  0
SECTION
  2
ENTITIES
  0
DIMENSION
  5
25
100
AcDbEntity
  8
CK_LEVEL_1
  6
CONTINUOUS
 62
         6
100
AcDbDimension
  2
*D0
 10
4.0355339059
 20
-4.6946997367
 30
0.0
 11
-0.6367074806
 21
-4.9446997367
 31
0.0
  3
DIMSTYLE1
100
AcDbAlignedDimension
 13
4.0355339059
 23
-3.5355339059
 33
0.0
 14
-4.0355339059
 24
-3.5355339059
 34
0.0
100
AcDbRotatedDimension
  0
DIMENSION
  5
35
100
AcDbEntity
  8
CK_LEVEL_1
  6
CONTINUOUS
 62
         6
100
AcDbDimension
  2
*D1
 10
6.1464273361
 20
-4.0355339059
 30
0.0
 11
5.5214273361
 21
-0.3085374032
 31
0.0
  3
DIMSTYLE2
100
AcDbAlignedDimension
 13
3.5355339059
 23
-4.0355339059
 33
0.0
 14
3.5355339059
 24
4.0355339059
 34
0.0
 50
5156.6201561774
100
AcDbRotatedDimension
  0
ARC
  5
41
100
AcDbEntity
  8
CK_LEVEL_1
  6
CONTINUOUS
 62
         3
100
AcDbCircle
 10
-1.8906592142
 20
-0.3860130082
 30
0.0
 40
0.2
100
AcDbArc
 50
139.9575481942
 51
225.3689824584
  0
ARC
  5
42
100
AcDbEntity
  8
CK_LEVEL_1
  6
CONTINUOUS
 62
         3
100
AcDbCircle
 10
-1.8906592142
 20
0.3860130082
 30
0.0
 40
0.2
100
AcDbArc
 50
134.6310175416
 51
220.0424518058
  0
ARC
  5
43
100
AcDbEntity
  8
CK_LEVEL_1
  6
CONTINUOUS
 62
         3
100
AcDbCircle
 10
-2.35
 20
0.0
 30
0.0
 40
0.4
100
AcDbArc
 50
319.9575481942
 51
400.0424518058
  0
ARC
  5
44
100
AcDbEntity
  8
CK_LEVEL_1
  6
CONTINUOUS
 62
         3
100
AcDbCircle
 10
-1.4564038585
 20
-0.5336722286
 30
0.0
 40
0.4
100
AcDbArc
 50
225.3689824584
 51
312.6702656904
  0
ARC
  5
45
100
AcDbEntity
  8
CK_LEVEL_1
  6
CONTINUOUS
 62
         3
100
AcDbCircle
 10
-1.4564038585
 20
0.5336722286
 30
0.0
 40
0.4
100
AcDbArc
 50
47.3297343096
 51
134.6310175416
  0
LINE
  5
46
100
AcDbEntity
  8
CK_LEVEL_1
  6
CONTINUOUS
 62
         3
100
AcDbLine
 10
-2.0311668965
 20
-0.5283421733
 30
0.0
 11
-1.737419223
 21
-0.8183305587
 31
0.0
  0
LINE
  5
47
100
AcDbEntity
  8
CK_LEVEL_1
  6
CONTINUOUS
 62
         3
100
AcDbLine
 10
-1.737419223
 20
0.8183305587
 30
0.0
 11
-2.0311668965
 21
0.5283421733
 31
0.0
  0
CIRCLE
  5
48
100
AcDbEntity
  8
CK_LEVEL_1
  6
CONTINUOUS
 62
         3
100
AcDbCircle
 10
0.0
 20
2.9375
 30
0.0
 40
0.19
  0
CIRCLE
  5
49
100
AcDbEntity
  8
CK_LEVEL_1
  6
CONTINUOUS
 62
         3
100
AcDbCircle
 10
-2.9375
 20
0.0
 30
0.0
 40
0.19
  0
CIRCLE
  5
4A
100
AcDbEntity
  8
CK_LEVEL_1
  6
CONTINUOUS
 62
         3
100
AcDbCircle
 10
0.0
 20
-2.9375
 30
0.0
 40
0.19
  0
CIRCLE
  5
4B
100
AcDbEntity
  8
CK_LEVEL_1
  6
CONTINUOUS
 62
         3
100
AcDbCircle
 10
2.9375
 20
0.0
 30
0.0
 40
0.19
  0
CIRCLE
  5
4C
100
AcDbEntity
  8
CK_LEVEL_1
  6
CONTINUOUS
 62
         3
100
AcDbCircle
 10
1.4805048231
 20
1.4805048231
 30
0.0
 40
0.16
  0
CIRCLE
  5
4D
100
AcDbEntity
  8
CK_LEVEL_1
  6
CONTINUOUS
 62
         3
100
AcDbCircle
 10
1.4805048231
 20
-1.4805048231
 30
0.0
 40
0.16
  0
CIRCLE
  5
4E
100
AcDbEntity
  8
CK_LEVEL_1
  6
CONTINUOUS
 62
         3
100
AcDbCircle
 10
-1.4805048231
 20
-1.4805048231
 30
0.0
 40
0.16
  0
CIRCLE
  5
4F
100
AcDbEntity
  8
CK_LEVEL_1
  6
CONTINUOUS
 62
         3
100
AcDbCircle
 10
-1.4805048231
 20
1.4805048231
 30
0.0
 40
0.16
  0
CIRCLE
  5
50
100
AcDbEntity
  8
CK_LEVEL_1
  6
CONTINUOUS
 62
         3
100
AcDbCircle
 10
0.0
 20
0.0
 30
0.0
 40
0.85
  0
CIRCLE
  5
51
100
AcDbEntity
  8
CK_LEVEL_1
  6
CONTINUOUS
 62
         3
100
AcDbCircle
 10
-3.5355339059
 20
3.5355339059
 30
0.0
 40
0.19
  0
ARC
  5
52
100
AcDbEntity
  8
CK_LEVEL_1
  6
CONTINUOUS
 62
         3
100
AcDbCircle
 10
-3.5355339059
 20
3.5355339059
 30
0.0
 40
0.5
100
AcDbArc
 50
64.4228504117
 51
205.5771495883
  0
LINE
  5
53
100
AcDbEntity
  8
CK_LEVEL_1
  6
CONTINUOUS
 62
         3
100
AcDbLine
 10
-3.9865362944
 20
3.3196708808
 30
0.0
 11
-2.9299556864
 21
1.1121581416
 31
0.0
  0
LINE
  5
54
100
AcDbEntity
  8
CK_LEVEL_1
  6
CONTINUOUS
 62
         3
100
AcDbLine
 10
-3.3196708808
 20
3.9865362944
 30
0.0
 11
-1.1121581416
 21
2.9299556864
 31
0.0
  0
ARC
  5
55
100
AcDbEntity
  8
CK_LEVEL_1
  6
CONTINUOUS
 62
         3
100
AcDbCircle
 10
-3.3809580748
 20
0.8962951165
 30
0.0
 40
0.5
100
AcDbArc
 50
296.3247289699
 51
385.5771495883
  0
ARC
  5
56
100
AcDbEntity
  8
CK_LEVEL_1
  6
CONTINUOUS
 62
         3
100
AcDbCircle
 10
-0.8962951165
 20
3.3809580748
 30
0.0
 40
0.5
100
AcDbArc
 50
244.4228504117
 51
333.6752710301
  0
CIRCLE
  5
57
100
AcDbEntity
  8
CK_LEVEL_1
  6
CONTINUOUS
 62
         3
100
AcDbCircle
 10
-3.5355339059
 20
-3.5355339059
 30
0.0
 40
0.19
  0
ARC
  5
58
100
AcDbEntity
  8
CK_LEVEL_1
  6
CONTINUOUS
 62
         3
100
AcDbCircle
 10
-3.5355339059
 20
-3.5355339059
 30
0.0
 40
0.5
100
AcDbArc
 50
154.4228504117
 51
295.5771495883
  0
LINE
  5
59
100
AcDbEntity
  8
CK_LEVEL_1
  6
CONTINUOUS
 62
         3
100
AcDbLine
 10
-3.3196708808
 20
-3.9865362944
 30
0.0
 11
-1.1121581416
 21
-2.9299556864
 31
0.0
  0
LINE
  5
5A
100
AcDbEntity
  8
CK_LEVEL_1
  6
CONTINUOUS
 62
         3
100
AcDbLine
 10
-3.9865362944
 20
-3.3196708808
 30
0.0
 11
-2.9299556864
 21
-1.1121581416
 31
0.0
  0
ARC
  5
5B
100
AcDbEntity
  8
CK_LEVEL_1
  6
CONTINUOUS
 62
         3
100
AcDbCircle
 10
-0.8962951165
 20
-3.3809580748
 30
0.0
 40
0.5
100
AcDbArc
 50
26.3247289699
 51
115.5771495883
  0
ARC
  5
5C
100
AcDbEntity
  8
CK_LEVEL_1
  6
CONTINUOUS
 62
         3
100
AcDbCircle
 10
-3.3809580748
 20
-0.8962951165
 30
0.0
 40
0.5
100
AcDbArc
 50
334.4228504117
 51
423.6752710301
  0
CIRCLE
  5
5D
100
AcDbEntity
  8
CK_LEVEL_1
  6
CONTINUOUS
 62
         3
100
AcDbCircle
 10
3.5355339059
 20
-3.5355339059
 30
0.0
 40
0.19
  0
ARC
  5
5E
100
AcDbEntity
  8
CK_LEVEL_1
  6
CONTINUOUS
 62
         3
100
AcDbCircle
 10
3.5355339059
 20
-3.5355339059
 30
0.0
 40
0.5
100
AcDbArc
 50
244.4228504117
 51
385.5771495883
  0
LINE
  5
5F
100
AcDbEntity
  8
CK_LEVEL_1
  6
CONTINUOUS
 62
         3
100
AcDbLine
 10
3.9865362944
 20
-3.3196708808
 30
0.0
 11
2.9299556864
 21
-1.1121581416
 31
0.0
  0
LINE
  5
60
100
AcDbEntity
  8
CK_LEVEL_1
  6
CONTINUOUS
 62
         3
100
AcDbLine
 10
3.3196708808
 20
-3.9865362944
 30
0.0
 11
1.1121581416
 21
-2.9299556864
 31
0.0
  0
ARC
  5
61
100
AcDbEntity
  8
CK_LEVEL_1
  6
CONTINUOUS
 62
         3
100
AcDbCircle
 10
3.3809580748
 20
-0.8962951165
 30
0.0
 40
0.5
100
AcDbArc
 50
116.3247289699
 51
205.5771495883
  0
ARC
  5
62
100
AcDbEntity
  8
CK_LEVEL_1
  6
CONTINUOUS
 62
         3
100
AcDbCircle
 10
0.8962951165
 20
-3.3809580748
 30
0.0
 40
0.5
100
AcDbArc
 50
64.4228504117
 51
153.6752710301
  0
CIRCLE
  5
63
100
AcDbEntity
  8
CK_LEVEL_1
  6
CONTINUOUS
 62
         3
100
AcDbCircle
 10
3.5355339059
 20
3.5355339059
 30
0.0
 40
0.19
  0
ARC
  5
64
100
AcDbEntity
  8
CK_LEVEL_1
  6
CONTINUOUS
 62
         3
100
AcDbCircle
 10
3.5355339059
 20
3.5355339059
 30
0.0
 40
0.5
100
AcDbArc
 50
334.4228504117
 51
475.5771495883
  0
LINE
  5
65
100
AcDbEntity
  8
CK_LEVEL_1
  6
CONTINUOUS
 62
         3
100
AcDbLine
 10
3.3196708808
 20
3.9865362944
 30
0.0
 11
1.1121581416
 21
2.9299556864
 31
0.0
  0
LINE
  5
66
100
AcDbEntity
  8
CK_LEVEL_1
  6
CONTINUOUS
 62
         3
100
AcDbLine
 10
3.9865362944
 20
3.3196708808
 30
0.0
 11
2.9299556864
 21
1.1121581416
 31
0.0
  0
ARC
  5
67
100
AcDbEntity
  8
CK_LEVEL_1
  6
CONTINUOUS
 62
         3
100
AcDbCircle
 10
0.8962951165
 20
3.3809580748
 30
0.0
 40
0.5
100
AcDbArc
 50
206.3247289699
 51
295.5771495883
  0
ARC
  5
68
100
AcDbEntity
  8
CK_LEVEL_1
  6
CONTINUOUS
 62
         3
100
AcDbCircle
 10
3.3809580748
 20
0.8962951165
 30
0.0
 40
0.5
100
AcDbArc
 50
154.4228504117
 51
243.6752710301
  0
ARC
  5
69
100
AcDbEntity
  8
CK_LEVEL_1
  6
CONTINUOUS
 62
         3
100
AcDbCircle
 10
0.0
 20
2.9375
 30
0.0
 40
0.5
100
AcDbArc
 50
26.3247289699
 51
153.6752710301
  0
ARC
  5
6A
100
AcDbEntity
  8
CK_LEVEL_1
  6
CONTINUOUS
 62
         3
100
AcDbCircle
 10
-2.9375
 20
0.0
 30
0.0
 40
0.5
100
AcDbArc
 50
116.3247289699
 51
243.6752710301
  0
ARC
  5
6B
100
AcDbEntity
  8
CK_LEVEL_1
  6
CONTINUOUS
 62
         3
100
AcDbCircle
 10
0.0
 20
-2.9375
 30
0.0
 40
0.5
100
AcDbArc
 50
206.3247289699
 51
333.6752710301
  0
ARC
  5
6C
100
AcDbEntity
  8
CK_LEVEL_1
  6
CONTINUOUS
 62
         3
100
AcDbCircle
 10
2.9375
 20
0.0
 30
0.0
 40
0.5
100
AcDbArc
 50
296.3247289699
 51
423.6752710301
  0
LINE
  5
6D
100
AcDbEntity
  8
CK_LEVEL_1
  6
CONTINUOUS
 62
         3
100
AcDbLine
 10
-2.8960027573
 20
3.2294354641
 30
0.0
 11
-2.2326112539
 21
2.9119167537
 31
0.0
  0
LINE
  5
6E
100
AcDbEntity
  8
CK_LEVEL_1
  6
CONTINUOUS
 62
         3
100
AcDbLine
 10
-3.2294354641
 20
2.8960027573
 30
0.0
 11
-2.9119167537
 21
2.2326112539
 31
0.0
  0
ARC
  5
6F
100
AcDbEntity
  8
CK_LEVEL_1
  6
CONTINUOUS
 62
         3
100
AcDbCircle
 10
0.0
 20
0.0
 30
0.0
 40
3.313
100
AcDbArc
 50
131.0640475502
 51
138.9359524498
  0
ARC
  5
70
100
AcDbEntity
  8
CK_LEVEL_1
  6
CONTINUOUS
 62
         3
100
AcDbCircle
 10
-3.0039342698
 20
3.0039342698
 30
0.0
 40
0.25
100
AcDbArc
 50
64.4228504117
 51
205.5771495883
  0
ARC
  5
71
100
AcDbEntity
  8
CK_LEVEL_1
  6
CONTINUOUS
 62
         3
100
AcDbCircle
 10
-2.3405427665
 20
2.6864155595
 30
0.0
 40
0.25
100
AcDbArc
 50
311.0640475502
 51
424.4228504117
  0
ARC
  5
72
100
AcDbEntity
  8
CK_LEVEL_1
  6
CONTINUOUS
 62
         3
100
AcDbCircle
 10
-2.6864155595
 20
2.3405427665
 30
0.0
 40
0.25
100
AcDbArc
 50
205.5771495883
 51
318.9359524498
  0
LINE
  5
73
100
AcDbEntity
  8
CK_LEVEL_1
  6
CONTINUOUS
 62
         3
100
AcDbLine
 10
-3.2294354641
 20
-2.8960027573
 30
0.0
 11
-2.9119167537
 21
-2.2326112539
 31
0.0
  0
LINE
  5
74
100
AcDbEntity
  8
CK_LEVEL_1
  6
CONTINUOUS
 62
         3
100
AcDbLine
 10
-2.8960027573
 20
-3.2294354641
 30
0.0
 11
-2.2326112539
 21
-2.9119167537
 31
0.0
  0
ARC
  5
75
100
AcDbEntity
  8
CK_LEVEL_1
  6
CONTINUOUS
 62
         3
100
AcDbCircle
 10
0.0
 20
0.0
 30
0.0
 40
3.313
100
AcDbArc
 50
221.0640475502
 51
228.9359524498
  0
ARC
  5
76
100
AcDbEntity
  8
CK_LEVEL_1
  6
CONTINUOUS
 62
         3
100
AcDbCircle
 10
-3.0039342698
 20
-3.0039342698
 30
0.0
 40
0.25
100
AcDbArc
 50
154.4228504117
 51
295.5771495883
  0
ARC
  5
77
100
AcDbEntity
  8
CK_LEVEL_1
  6
CONTINUOUS
 62
         3
100
AcDbCircle
 10
-2.6864155595
 20
-2.3405427665
 30
0.0
 40
0.25
100
AcDbArc
 50
41.0640475502
 51
154.4228504117
  0
ARC
  5
78
100
AcDbEntity
  8
CK_LEVEL_1
  6
CONTINUOUS
 62
         3
100
AcDbCircle
 10
-2.3405427665
 20
-2.6864155595
 30
0.0
 40
0.25
100
AcDbArc
 50
295.5771495883
 51
408.9359524498
  0
LINE
  5
79
100
AcDbEntity
  8
CK_LEVEL_1
  6
CONTINUOUS
 62
         3
100
AcDbLine
 10
2.8960027573
 20
-3.2294354641
 30
0.0
 11
2.2326112539
 21
-2.9119167537
 31
0.0
  0
LINE
  5
7A
100
AcDbEntity
  8
CK_LEVEL_1
  6
CONTINUOUS
 62
         3
100
AcDbLine
 10
3.2294354641
 20
-2.8960027573
 30
0.0
 11
2.9119167537
 21
-2.2326112539
 31
0.0
  0
ARC
  5
7B
100
AcDbEntity
  8
CK_LEVEL_1
  6
CONTINUOUS
 62
         3
100
AcDbCircle
 10
0.0
 20
0.0
 30
0.0
 40
3.313
100
AcDbArc
 50
311.0640475502
 51
318.9359524498
  0
ARC
  5
7C
100
AcDbEntity
  8
CK_LEVEL_1
  6
CONTINUOUS
 62
         3
100
AcDbCircle
 10
3.0039342698
 20
-3.0039342698
 30
0.0
 40
0.25
100
AcDbArc
 50
244.4228504117
 51
385.5771495883
  0
ARC
  5
7D
100
AcDbEntity
  8
CK_LEVEL_1
  6
CONTINUOUS
 62
         3
100
AcDbCircle
 10
2.3405427665
 20
-2.6864155595
 30
0.0
 40
0.25
100
AcDbArc
 50
131.0640475502
 51
244.4228504117
  0
ARC
  5
7E
100
AcDbEntity
  8
CK_LEVEL_1
  6
CONTINUOUS
 62
         3
100
AcDbCircle
 10
2.6864155595
 20
-2.3405427665
 30
0.0
 40
0.25
100
AcDbArc
 50
25.5771495883
 51
138.9359524498
  0
LINE
  5
7F
100
AcDbEntity
  8
CK_LEVEL_1
  6
CONTINUOUS
 62
         3
100
AcDbLine
 10
3.2294354641
 20
2.8960027573
 30
0.0
 11
2.9119167537
 21
2.2326112539
 31
0.0
  0
LINE
  5
80
100
AcDbEntity
  8
CK_LEVEL_1
  6
CONTINUOUS
 62
         3
100
AcDbLine
 10
2.8960027573
 20
3.2294354641
 30
0.0
 11
2.2326112539
 21
2.9119167537
 31
0.0
  0
ARC
  5
81
100
AcDbEntity
  8
CK_LEVEL_1
  6
CONTINUOUS
 62
         3
100
AcDbCircle
 10
0.0
 20
0.0
 30
0.0
 40
3.313
100
AcDbArc
 50
41.0640475502
 51
48.9359524498
  0
ARC
  5
82
100
AcDbEntity
  8
CK_LEVEL_1
  6
CONTINUOUS
 62
         3
100
AcDbCircle
 10
3.0039342698
 20
3.0039342698
 30
0.0
 40
0.25
100
AcDbArc
 50
334.4228504117
 51
475.5771495883
  0
ARC
  5
83
100
AcDbEntity
  8
CK_LEVEL_1
  6
CONTINUOUS
 62
         3
100
AcDbCircle
 10
2.6864155595
 20
2.3405427665
 30
0.0
 40
0.25
100
AcDbArc
 50
221.0640475502
 51
334.4228504117
  0
ARC
  5
84
100
AcDbEntity
  8
CK_LEVEL_1
  6
CONTINUOUS
 62
         3
100
AcDbCircle
 10
2.3405427665
 20
2.6864155595
 30
0.0
 40
0.25
100
AcDbArc
 50
115.5771495883
 51
228.9359524498
  0
ARC
  5
85
100
AcDbEntity
  8
CK_LEVEL_1
  6
CONTINUOUS
 62
         3
100
AcDbCircle
 10
0.0
 20
0.0
 30
0.0
 40
1.25
100
AcDbArc
 50
154.5763397031
 51
205.4236602969
  0
ARC
  5
86
100
AcDbEntity
  8
CK_LEVEL_1
  6
CONTINUOUS
 62
         3
100
AcDbCircle
 10
-1.3547371306
 20
0.6439621938
 30
0.0
 40
0.25
100
AcDbArc
 50
334.5763397031
 51
407.3297343096
  0
ARC
  5
87
100
AcDbEntity
  8
CK_LEVEL_1
  6
CONTINUOUS
 62
         3
100
AcDbCircle
 10
-1.3547371306
 20
-0.6439621938
 30
0.0
 40
0.25
100
AcDbArc
 50
312.6702656904
 51
385.4236602969
  0
LINE
  5
88
100
AcDbEntity
  8
CK_LEVEL_1
  6
CONTINUOUS
 62
         3
100
AcDbLine
 10
-0.8183305587
 20
-1.737419223
 30
0.0
 11
-0.5283421733
 21
-2.0311668965
 31
0.0
  0
LINE
  5
89
100
AcDbEntity
  8
CK_LEVEL_1
  6
CONTINUOUS
 62
         3
100
AcDbLine
 10
0.5283421733
 20
-2.0311668965
 30
0.0
 11
0.8183305587
 21
-1.737419223
 31
0.0
  0
ARC
  5
8A
100
AcDbEntity
  8
CK_LEVEL_1
  6
CONTINUOUS
 62
         3
100
AcDbCircle
 10
-0.5336722286
 20
-1.4564038585
 30
0.0
 40
0.4
100
AcDbArc
 50
137.3297343096
 51
224.6310175416
  0
ARC
  5
8B
100
AcDbEntity
  8
CK_LEVEL_1
  6
CONTINUOUS
 62
         3
100
AcDbCircle
 10
0.5336722286
 20
-1.4564038585
 30
0.0
 40
0.4
100
AcDbArc
 50
315.3689824584
 51
402.6702656904
  0
ARC
  5
8C
100
AcDbEntity
  8
CK_LEVEL_1
  6
CONTINUOUS
 62
         3
100
AcDbCircle
 10
0.0
 20
-2.35
 30
0.0
 40
0.4
100
AcDbArc
 50
49.9575481942
 51
130.0424518058
  0
ARC
  5
8D
100
AcDbEntity
  8
CK_LEVEL_1
  6
CONTINUOUS
 62
         3
100
AcDbCircle
 10
-0.3860130082
 20
-1.8906592142
 30
0.0
 40
0.2
100
AcDbArc
 50
224.6310175416
 51
310.0424518058
  0
ARC
  5
8E
100
AcDbEntity
  8
CK_LEVEL_1
  6
CONTINUOUS
 62
         3
100
AcDbCircle
 10
0.3860130082
 20
-1.8906592142
 30
0.0
 40
0.2
100
AcDbArc
 50
229.9575481942
 51
315.3689824584
  0
ARC
  5
8F
100
AcDbEntity
  8
CK_LEVEL_1
  6
CONTINUOUS
 62
         3
100
AcDbCircle
 10
0.0
 20
0.0
 30
0.0
 40
1.25
100
AcDbArc
 50
244.5763397031
 51
295.4236602969
  0
ARC
  5
90
100
AcDbEntity
  8
CK_LEVEL_1
  6
CONTINUOUS
 62
         3
100
AcDbCircle
 10
-0.6439621938
 20
-1.3547371306
 30
0.0
 40
0.25
100
AcDbArc
 50
64.5763397031
 51
137.3297343096
  0
ARC
  5
91
100
AcDbEntity
  8
CK_LEVEL_1
  6
CONTINUOUS
 62
         3
100
AcDbCircle
 10
0.6439621938
 20
-1.3547371306
 30
0.0
 40
0.25
100
AcDbArc
 50
42.6702656904
 51
115.4236602969
  0
LINE
  5
92
100
AcDbEntity
  8
CK_LEVEL_1
  6
CONTINUOUS
 62
         3
100
AcDbLine
 10
1.737419223
 20
-0.8183305587
 30
0.0
 11
2.0311668965
 21
-0.5283421733
 31
0.0
  0
LINE
  5
93
100
AcDbEntity
  8
CK_LEVEL_1
  6
CONTINUOUS
 62
         3
100
AcDbLine
 10
2.0311668965
 20
0.5283421733
 30
0.0
 11
1.737419223
 21
0.8183305587
 31
0.0
  0
ARC
  5
94
100
AcDbEntity
  8
CK_LEVEL_1
  6
CONTINUOUS
 62
         3
100
AcDbCircle
 10
1.4564038585
 20
-0.5336722286
 30
0.0
 40
0.4
100
AcDbArc
 50
227.3297343096
 51
314.6310175416
  0
ARC
  5
95
100
AcDbEntity
  8
CK_LEVEL_1
  6
CONTINUOUS
 62
         3
100
AcDbCircle
 10
1.4564038585
 20
0.5336722286
 30
0.0
 40
0.4
100
AcDbArc
 50
45.3689824584
 51
132.6702656904
  0
ARC
  5
96
100
AcDbEntity
  8
CK_LEVEL_1
  6
CONTINUOUS
 62
         3
100
AcDbCircle
 10
2.35
 20
0.0
 30
0.0
 40
0.4
100
AcDbArc
 50
139.9575481942
 51
220.0424518058
  0
ARC
  5
97
100
AcDbEntity
  8
CK_LEVEL_1
  6
CONTINUOUS
 62
         3
100
AcDbCircle
 10
1.8906592142
 20
-0.3860130082
 30
0.0
 40
0.2
100
AcDbArc
 50
314.6310175416
 51
400.0424518058
  0
ARC
  5
98
100
AcDbEntity
  8
CK_LEVEL_1
  6
CONTINUOUS
 62
         3
100
AcDbCircle
 10
1.8906592142
 20
0.3860130082
 30
0.0
 40
0.2
100
AcDbArc
 50
319.9575481942
 51
405.3689824584
  0
ARC
  5
99
100
AcDbEntity
  8
CK_LEVEL_1
  6
CONTINUOUS
 62
         3
100
AcDbCircle
 10
0.0
 20
0.0
 30
0.0
 40
1.25
100
AcDbArc
 50
334.5763397031
 51
385.4236602969
  0
ARC
  5
9A
100
AcDbEntity
  8
CK_LEVEL_1
  6
CONTINUOUS
 62
         3
100
AcDbCircle
 10
1.3547371306
 20
-0.6439621938
 30
0.0
 40
0.25
100
AcDbArc
 50
154.5763397031
 51
227.3297343096
  0
ARC
  5
9B
100
AcDbEntity
  8
CK_LEVEL_1
  6
CONTINUOUS
 62
         3
100
AcDbCircle
 10
1.3547371306
 20
0.6439621938
 30
0.0
 40
0.25
100
AcDbArc
 50
132.6702656904
 51
205.4236602969
  0
LINE
  5
9C
100
AcDbEntity
  8
CK_LEVEL_1
  6
CONTINUOUS
 62
         3
100
AcDbLine
 10
0.8183305587
 20
1.737419223
 30
0.0
 11
0.5283421733
 21
2.0311668965
 31
0.0
  0
LINE
  5
9D
100
AcDbEntity
  8
CK_LEVEL_1
  6
CONTINUOUS
 62
         3
100
AcDbLine
 10
-0.5283421733
 20
2.0311668965
 30
0.0
 11
-0.8183305587
 21
1.737419223
 31
0.0
  0
ARC
  5
9E
100
AcDbEntity
  8
CK_LEVEL_1
  6
CONTINUOUS
 62
         3
100
AcDbCircle
 10
0.5336722286
 20
1.4564038585
 30
0.0
 40
0.4
100
AcDbArc
 50
317.3297343096
 51
404.6310175416
  0
ARC
  5
9F
100
AcDbEntity
  8
CK_LEVEL_1
  6
CONTINUOUS
 62
         3
100
AcDbCircle
 10
-0.5336722286
 20
1.4564038585
 30
0.0
 40
0.4
100
AcDbArc
 50
135.3689824584
 51
222.6702656904
  0
ARC
  5
A0
100
AcDbEntity
  8
CK_LEVEL_1
  6
CONTINUOUS
 62
         3
100
AcDbCircle
 10
0.0
 20
2.35
 30
0.0
 40
0.4
100
AcDbArc
 50
229.9575481942
 51
310.0424518058
  0
ARC
  5
A1
100
AcDbEntity
  8
CK_LEVEL_1
  6
CONTINUOUS
 62
         3
100
AcDbCircle
 10
0.3860130082
 20
1.8906592142
 30
0.0
 40
0.2
100
AcDbArc
 50
44.6310175416
 51
130.0424518058
  0
ARC
  5
A2
100
AcDbEntity
  8
CK_LEVEL_1
  6
CONTINUOUS
 62
         3
100
AcDbCircle
 10
-0.3860130082
 20
1.8906592142
 30
0.0
 40
0.2
100
AcDbArc
 50
49.9575481942
 51
135.3689824584
  0
ARC
  5
A3
100
AcDbEntity
  8
CK_LEVEL_1
  6
CONTINUOUS
 62
         3
100
AcDbCircle
 10
0.0
 20
0.0
 30
0.0
 40
1.25
100
AcDbArc
 50
64.5763397031
 51
115.4236602969
  0
ARC
  5
A4
100
AcDbEntity
  8
CK_LEVEL_1
  6
CONTINUOUS
 62
         3
100
AcDbCircle
 10
0.6439621938
 20
1.3547371306
 30
0.0
 40
0.25
100
AcDbArc
 50
244.5763397031
 51
317.3297343096
  0
ARC
  5
A5
100
AcDbEntity
  8
CK_LEVEL_1
  6
CONTINUOUS
 62
         3
100
AcDbCircle
 10
-0.6439621938
 20
1.3547371306
 30
0.0
 40
0.25
100
AcDbArc
 50
222.6702656904
 51
295.4236602969
  0
ENDSEC
  0
SECTION
  2
OBJECTS
  0
DICTIONARY
  5
19
100
AcDbDictionary
  3
ACAD_GROUP
350
1A
  3
ACAD_MLINESTYLE
350
1B
  0
DICTIONARY
  5
1A
102
{ACAD_REACTORS
330
19
102
}
100
AcDbDictionary
  0
DICTIONARY
  5
1B
102
{ACAD_REACTORS
330
19
102
}
100
AcDbDictionary
  3
STANDARD
350
1C
  0
MLINESTYLE
  5
1C
102
{ACAD_REACTORS
330
1B
102
}
100
AcDbMlineStyle
  2
STANDARD
 70
         0
  3

 62
         0
 51
90.0
 52
90.0
 71
         2
 49
0.5
 62
       256
  6
BYLAYER
 49
-0.5
 62
       256
  6
BYLAYER
  0
ENDSEC
  0
EOF
